#TITLE:Step By Step;
#SUBTITLE:;
#ARTIST:Battle;
#TITLETRANSLIT:Step By Step;
#SUBTITLETRANSLIT:;
#ARTISTTRANSLIT:Battle;
#CREDIT:;
#BANNER:Step By Step-bn.png;
#BACKGROUND:Step By Step-bg.png;
#LYRICSPATH:;
#CDTITLE:pm4cd.png;
#MUSIC:Step By Step.mp3;
#OFFSET:0.120;
#SAMPLESTART:43.973;
#SAMPLELENGTH:20.000;
#SELECTABLE:YES;
#BPMS:0.000=133.000;
#STOPS:;
#BGCHANGES:;
// cache tags:
#FIRSTBEAT:1.750;
#LASTBEAT:515.750;
#SONGFILENAME:Songs/Music V.I.P ^_^/Step By Step/Step By Step.sm;
#HASMUSIC:1;
#HASBANNER:1;
#MUSICLENGTH:237.740;
// end cache tags

//---------------dance-single - ----------------
#NOTES:
     dance-single:
     :
     Hard:
     13:
     1.000,1.000,1.000,0.059,1.000,1176.000,440.000,14.000,0.000,144.000:
0000
0000
0000
0000
0000
0000
0000
0000
0000
0000
0000
0000
0000
0000
0100
0000
0000
0000
0010
0000
0000
0000
0000
0000
0000
0001
0000
0000
0000
0000
0000
0000
,
0000
0000
0010
0000
0000
0000
0100
0000
0000
0000
0000
0000
0000
0000
1000
0000
0000
0000
0010
0000
0000
0000
0000
0000
0000
0100
0000
0000
0000
0000
0000
0000
,
0000
0000
0001
0000
0000
0000
0010
0000
0000
0000
0000
0000
0000
0000
0100
0000
0000
0000
0010
0000
0000
0000
0000
0000
0000
0100
0000
0000
0000
0000
0000
0000
,
0000
0010
0000
0001
0000
0000
0000
1000
0000
0010
0000
0100
0000
0001
0000
1000
,
0000
0000
0010
0000
0000
0000
0100
0000
0000
0000
0001
0000
0000
0000
0100
0000
0000
0000
0010
0000
0000
0000
0000
0000
0000
1000
0000
0000
0000
0000
0000
0000
,
0000
0000
0001
0000
0000
0000
1000
0000
0000
0000
0000
0000
0000
0000
0100
0000
0000
0000
0001
0000
0000
0000
0000
0000
0000
0010
0000
0000
0000
0000
0000
0000
,
0000
0000
0100
0000
0000
0000
1000
0000
0000
0000
0000
0000
0000
0000
1000
0000
0000
0000
0001
0000
0000
0000
0000
0000
0000
0001
0000
0000
0000
0000
0000
0000
,
0000
0100
0000
0001
0000
0000
0000
1000
0000
0100
0000
0010
0000
0001
0000
0010
,
0000
0100
0000
1000
0000
0100
0000
0010
0000
0000
0000
0100
0000
0000
0000
0001
,
0000
0000
0000
0000
0000
0000
0000
0100
0000
0010
0010
0000
0000
0000
0000
0100
,
0100
0000
0000
0010
0000
0000
0000
0001
0001
0000
0000
0010
0000
0000
0000
0100
,
0100
0000
0000
0000
0000
0000
0000
1000
0000
0100
0000
0001
0000
0010
0000
1000
,
0000
0100
0000
0001
0000
0010
0000
0100
0000
0000
0000
0001
0000
0000
0000
1000
,
0000
0000
0000
0100
0000
0000
0000
0001
0000
1000
1000
0000
0000
0010
0000
0001
,
0001
0000
0000
1000
0000
0000
0000
0100
0000
0001
0001
0000
0000
0000
0000
0100
,
0000
0001
0001
0000
0000
0000
0000
0100
0000
0001
0001
0010
0000
0000
0000
1000
,
0000
0000
0000
0001
0000
0000
0000
1100
0000
0001
0000
1010
0000
0100
0000
1001
,
0000
0010
0000
1100
0000
1000
0000
1101
0000
0010
0000
1001
0000
0100
0000
0011
,
0000
0100
0000
1001
0000
0010
0000
1101
0000
0100
0000
1100
0000
0001
0000
1010
,
0000
0100
0000
0011
0000
0001
0000
1101
0000
0100
0000
1101
0000
0100
0000
1101
,
0000
0100
0000
1101
0000
0100
0000
1101
0000
0001
0000
0110
0000
1000
0000
1010
,
0000
0100
0000
1001
0000
0010
0000
1101
0000
1000
0000
1100
0000
0100
0000
0011
,
0000
1000
0000
0110
0000
0001
0000
1101
0000
0010
0000
1100
0010
0001
0010
0100
,
0010
0000
0000
0100
0000
0000
1000
0000
0000
0100
0000
0000
0010
0000
0000
0001
0000
0000
0010
0000
0000
1101
0000
0000
0010
0000
0000
0001
0000
0000
0010
0000
0000
1101
0000
0000
0010
0000
0000
0100
0000
0000
0010
0000
0000
1101
0000
0010
,
0000
0001
0000
0010
0000
0100
0000
0010
0000
1101
0000
0010
0000
0001
0000
0010
0000
0100
0000
0010
0000
1101
0000
0000
0000
0000
0000
0010
0000
0000
0000
0000
0000
1100
0000
0000
0000
0000
0000
1000
0000
0000
0000
0000
0000
1001
0000
0000
,
0000
0010
0000
0101
0000
0100
0100
1101
0000
0001
0000
0110
0000
1000
0000
1010
,
0000
0100
0000
0011
0000
1000
0000
1101
0000
0010
0000
0101
0000
0001
0000
1100
,
0000
0010
0000
0101
0000
0010
0000
1101
0000
0010
0000
1101
0000
0010
0000
1101
,
0000
0010
0000
1101
0000
0010
0000
1101
0000
0001
0000
0101
0000
0100
0000
0011
,
0000
1000
0000
0101
0000
0010
0000
1101
0000
0010
0000
1100
0000
1000
0000
1001
,
0000
0100
0000
0011
0000
1000
0000
1011
0000
0000
0000
0110
0000
0000
0000
1011
,
0000
0000
0000
1001
0000
0000
0000
1011
0000
0010
0000
1011
0000
0010
0000
1011
,
0000
0010
0000
1011
0000
0000
0000
1100
0000
0101
0010
0000
0000
0010
0000
1001
,
0100
0000
1000
0011
0000
1000
0000
0110
0000
0011
0100
0000
0000
0100
0000
1100
,
0010
0000
0100
1001
0000
0010
0000
0110
0000
1001
0010
0000
0000
0100
0000
0011
,
0100
0000
1000
0101
0000
0010
0000
1010
0000
1100
0010
0000
0000
0100
0000
0011
,
0100
0000
0010
1001
0000
1000
0000
1010
0000
0101
1000
0000
0000
0100
0000
0011
,
0100
0000
0010
0101
0000
1000
0000
1001
0000
0110
0001
0000
0000
0100
0000
0101
,
1000
0000
0100
1010
0000
0010
0000
1001
0000
1010
0001
0000
0000
0001
0000
1100
,
0010
0000
0010
0101
0000
0100
0000
0101
0000
0110
0000
1001
0000
1100
0000
0011
,
0100
0000
0010
1001
0000
0010
0000
1100
0010
0001
0010
0001
0010
0100
1000
0100
,
0010
0001
0000
0110
0000
1000
0100
0010
0100
0010
0001
0010
0100
0010
0001
0010
,
0100
1000
0000
0011
0000
0100
0010
1001
0010
0100
0010
0101
1000
0100
0010
1001
,
0010
0100
1000
0110
0001
0010
0100
1001
0100
0010
0100
1010
0001
0010
0100
0011
,
1000
0100
0010
1001
0000
0100
0000
0101
0010
0100
0010
0001
0010
0100
0010
0100
,
1000
0100
0010
1001
0010
0000
0000
0100
1000
0100
0010
0001
0010
0100
1000
0100
,
0001
0010
0100
1001
0100
0000
0000
1000
0100
0010
0100
0010
0001
0010
0100
0010
,
0001
0000
0000
0010
0000
0000
0100
0000
0000
1000
0000
0000
0100
0000
0000
0010
0000
0000
0001
0000
0000
0010
0000
0000
0100
0000
0000
1000
0000
0000
0100
0000
0000
0010
0000
0000
0001
0000
0000
0010
0000
0000
0100
0000
0000
1000
0000
0100
,
0000
0010
0000
0001
0000
0010
0000
0100
0000
1000
0000
0100
0000
0010
0000
0100
0000
0010
0000
0001
0000
1011
0000
0000
0000
0000
0000
0100
0000
0000
0000
0000
0000
0101
0000
0000
0000
0000
0000
0010
0000
0000
0000
0000
0000
1001
0000
0000
,
0000
0100
0000
1100
0000
0001
0000
1011
0000
0100
0000
0011
0000
1000
0000
1001
,
0000
0010
0000
1100
0000
0010
0000
1011
0000
0001
0000
1001
0000
0100
0000
0011
,
0000
1000
0000
0101
0000
0010
0000
1011
0000
0100
0000
1011
0000
0100
0000
1011
,
0000
0100
0000
1011
0000
0100
0000
1011
0000
0010
0000
0101
0000
0010
0000
1100
,
0000
1000
0000
1001
0000
0010
0000
1011
0000
1000
0000
1100
0000
0010
0000
0101
,
0000
0001
0000
1001
0000
0010
0000
1011
0000
0100
0000
0101
0010
0100
1000
0110
,
0001
0000
0000
0010
0000
0000
0100
0000
0000
1000
0000
0000
0100
0000
0000
0010
0000
0000
0100
0000
0000
1011
0000
0000
0100
0000
0000
1000
0000
0000
0100
0000
0000
1011
0000
0000
0100
0000
0000
0010
0000
0000
0100
0000
0000
1011
0000
0100
,
0000
0010
0000
0001
0000
0010
0000
0100
0000
1011
0000
0100
0000
1000
0000
0100
0000
0010
0000
0100
0000
1011
0000
0000
0000
0000
0000
1000
0000
0000
0000
0000
0000
0110
0000
0000
0000
0000
0000
0001
0000
0000
0000
0000
0000
1010
0000
0000
,
0000
1000
0000
1001
0000
0001
0001
1101
0000
0001
0000
1001
0000
0010
0000
1100
,
0000
0001
0000
1001
0000
0010
0000
1101
0000
0100
0000
0101
0000
0010
0000
1100
,
0000
1000
0000
1001
0000
0100
0000
1101
0000
0001
0000
1101
0000
0001
0000
1101
,
0000
0001
0000
1101
0000
0001
0000
1101
0000
0010
0000
0101
0000
0100
0000
1100
,
0000
0001
0000
0110
0000
1000
0000
1011
0000
0100
0000
0011
0000
1000
0000
0101
,
0000
0010
0000
1001
0000
0010
0000
1011
0000
0000
0000
0101
0000
0000
0000
1011
,
0000
0000
0000
1010
0000
0000
0000
1011
0000
0010
0000
1011
0000
0010
0000
1011
,
0000
0010
0000
1011
0000
0010
0000
0011
0000
2000
0000
0110
0000
0010
0000
0011
,
0000
0100
0000
0101
0000
0001
0000
3211
0000
0001
0000
1010
0000
1000
0000
1001
,
0000
0010
0000
0011
0000
1000
0000
1321
0000
0100
0000
1100
0000
0001
0000
1001
,
0000
0100
0000
0101
0000
1000
0000
1132
0000
0100
0000
1110
0000
0010
0000
1110
,
0000
0100
0000
1110
0000
1000
0000
1123
0000
1000
0000
0101
0000
0001
0000
1100
,
0000
1000
0000
0101
0000
0100
0000
1231
0000
0001
0000
0011
0000
1000
0000
1001
,
0000
0010
0000
1010
0000
1000
0000
2311
0000
0100
0000
0011
0000
0100
0000
0101
,
0000
0010
0000
0011
0000
0100
0000
3000
0000
0010
0000
0100
0000
1000
0000
0100
,
0000
0010
0000
0001
0000
0010
0000
1101
0010
0001
0000
0100
0000
1000
0000
1001
,
0100
0000
0000
1010
0000
0010
0000
1100
0000
0101
0010
0000
0000
0010
0000
1100
,
0010
0000
0000
0101
0000
1000
0000
0011
0000
1010
0001
0000
0000
1000
0000
0101
,
1000
0000
0000
1001
0000
0100
0000
1100
0000
0011
0100
0000
0000
1000
0000
0101
,
0010
0000
0000
1001
0000
0010
0000
1100
0000
0110
1000
0000
0000
0001
0000
0101
,
1000
0000
0000
1001
0000
0010
0000
1100
0000
0011
0100
0000
0000
0010
0000
1100
,
0010
0000
0000
1001
0000
0100
0000
0110
0000
1100
0010
0000
0000
0010
0000
0110
,
1000
0000
0000
1001
0000
0010
0000
0101
0000
1010
0001
0000
0000
1000
0000
0011
,
0100
0000
0010
1100
0000
0010
0000
1100
0010
0100
1000
0100
0010
0001
0010
0100
,
1000
0100
0010
1100
0010
0001
0001
0010
0100
1000
0100
0010
0100
1000
0100
1010
,
0001
0010
0100
1001
0010
0100
1000
0100
0010
0100
1000
0101
0010
0100
0010
0001
,
0010
0100
1000
0100
0010
0001
0010
1100
0010
0100
1000
0100
0010
0001
0010
0100
,
1000
0100
0010
1001
0010
0100
0010
0001
0010
0001
0010
0100
0010
0001
0010
1000
,
0100
0010
0001
1010
0000
0100
0100
0010
0001
0010
0100
0010
0001
0010
0100
1000
,
0010
0100
0001
0110
1000
1000
0100
0010
0001
0010
0100
0010
0100
1000
0100
0011
,
0100
1000
0100
0010
0001
0010
0100
1000
0100
0010
0001
0010
0100
1000
0100
0010
,
0001
0000
0000
0010
0000
0000
0100
0000
0000
1000
0000
0100
0000
0010
0000
0001
0000
0010
0000
0100
0000
1011
0000
0000
0000
0000
0000
0010
0000
0000
0000
0000
0000
0011
0000
0000
0000
0000
0000
1000
0000
0000
0000
0000
0000
1001
0000
0000
,
0000
0010
0000
1100
0000
0001
0000
1011
0000
0100
0000
0011
0000
1000
0000
1001
,
0000
0010
0000
1100
0000
0001
0000
1011
0000
1000
0000
1100
0000
0010
0000
0101
,
0000
0010
0000
1100
0000
0010
0000
1011
0000
0100
0000
1011
0000
0100
0000
1011
,
0000
0100
0000
1011
0000
0100
0000
1011
0000
0010
0000
0101
0000
1000
0000
1001
,
0000
0010
0000
1100
0000
0001
0000
1011
0000
1000
0000
0110
0000
0001
0000
1010
,
0000
1000
0000
0011
0000
0100
0000
1011
0000
0001
0000
0110
0001
0010
0001
1010
,
0100
0000
0000
0010
0000
0000
0001
0000
0000
1010
0000
0000
0100
0000
0000
0010
0000
0000
0100
0000
0000
1011
0000
0000
0100
0000
0000
0010
0000
0000
0100
0000
0000
1011
0000
0000
0100
0000
0000
1000
0000
0000
0100
0000
0000
1011
0000
0100
,
0000
1000
0000
0100
0000
0010
0000
0100
0000
1011
0000
0100
0000
0010
0000
0001
0000
0010
0000
0100
0000
1011
0000
0000
0000
0000
0000
1100
0000
0000
0000
0000
0000
0110
0000
0000
0000
0000
0000
0011
0000
0000
0000
0000
0000
1001
0000
0000
,
0000
1010
0000
1100
0000
0011
0110
1101
0000
1001
0000
0101
0000
0011
0000
1001
,
0000
1010
0000
1100
0000
1001
0000
1101
0000
1001
0000
0101
0000
1010
0000
0101
,
0000
0011
0000
1100
0000
0011
0000
1101
0000
0011
0000
1101
0000
0011
0000
1101
,
0000
0011
0000
1101
0000
0011
0000
1101
0000
0101
0000
1010
0000
0101
0000
1100
,
0000
0011
0000
1100
0000
1001
0000
1101
0000
1001
0000
0101
0000
1010
0000
0110
,
0000
0101
0000
1010
0000
1001
0000
1101
0000
0011
0000
0110
0000
1100
0000
1101
,
0000
1001
0000
0101
0000
1100
0000
1101
0000
1100
0000
1101
0000
1100
0000
1101
,
0000
1100
0000
1101
0000
1100
0000
1102
0000
0000
0000
0010
0000
0000
0000
1000
,
0000
0000
0000
0000
0000
0100
0000
0023
0000
0000
0000
1000
0000
0001
0000
0000
,
0000
0100
0000
0000
0000
1000
0000
0230
0000
0000
0000
1000
0000
0000
0000
0010
,
0000
0000
0000
0001
0000
0010
0000
2300
0000
0000
0000
0100
0000
0000
0000
0001
,
0000
0000
0000
0010
0000
0000
0000
3200
0000
0000
0000
0001
0000
0000
0000
0010
,
0000
0000
0000
0000
0000
0000
0000
0320
0000
0000
0000
1000
0000
0001
0000
0000
,
0000
1000
0000
0000
0000
0100
0000
0032
0000
0000
0000
0100
0000
0000
0000
1000
,
0000
0000
0000
0000
0000
0000
0000
0000
0000
0010
0000
0000
0000
0000
0000
0000
0000
0000
0000
0000
0000
1103
0000
0000
0010
0000
0000
0001
0000
0000
0010
0000
0000
1100
0000
0000
0010
0000
0000
0001
0000
0000
0010
0000
0000
1100
0000
0010
,
0000
0001
0000
0010
0000
0001
0000
0010
0000
1100
0000
0010
0000
0001
0000
0010
0000
0001
0000
0010
0000
1100
0000
0000
0000
0000
0000
0001
0000
0000
0000
0000
0000
0110
0000
0000
0000
0000
0000
1000
0000
0000
0000
0000
0000
0101
0000
0000
,
0000
0100
0000
1100
0000
0001
0000
1011
0000
0010
0000
1100
0000
1000
0000
0101
,
0000
0010
0000
0110
0000
1000
0000
1011
0000
0010
0000
1100
0000
0001
0000
0110
,
0000
1000
0000
1010
0000
0001
0000
1011
0000
0001
0000
1011
0000
0001
0000
1011
,
0000
0001
0000
1011
0000
0001
0000
1011
0000
1000
0000
0101
0000
0010
0000
1001
,
0000
0010
0000
1100
0000
0010
0000
1011
0000
0100
0000
1001
0000
0010
0000
1100
,
0000
1000
0000
1001
0000
0100
0000
1011
0000
1000
0000
1010
0000
0010
0001
1010
,
0100
0000
0000
0010
0000
0000
0001
0000
0000
0010
0000
0000
0100
0000
0000
1000
0000
0000
0100
0000
0000
1011
0000
0000
0100
0000
0000
0010
0000
0000
0100
0000
0000
1011
0000
0100
0000
0010
0000
0001
0000
0010
0000
0100
0000
1011
0000
0100
,
0000
1000
0000
0100
0000
0010
0000
0100
0000
1011
0000
0100
0000
0010
0000
0001
0000
0010
0000
0100
0000
1011
0000
0000
0000
0000
0000
0011
0000
0000
0000
0000
0000
1100
0000
0000
0000
0000
0000
1001
0000
0000
0000
0000
0000
0101
0000
0000
,
0000
0011
0000
1010
0000
1001
0110
1101
0000
0110
0000
1001
0000
0110
0000
1100
,
0000
1001
0000
0011
0000
0101
0000
1101
0000
1100
0000
1010
0000
0110
0000
0101
,
0000
1001
0000
1010
0000
0110
0000
1101
0000
0110
0000
1101
0000
0110
0000
1101
,
0000
0110
0000
1101
0000
0110
0000
1101
0000
0011
0000
0110
0000
1100
0000
1001
,
0000
0101
0000
0110
0000
1010
0000
1011
0000
0110
0000
0011
0000
0110
0000
1001
,
0000
1010
0000
0101
0000
1010
0000
1011
0000
0011
0000
1100
0000
1001
0000
1011
,
0000
1001
0000
0101
0000
0011
0000
1011
0000
0101
0000
1011
0000
1010
0000
1011
,
0000
1001
0000
1011
0000
0110
0000
1000
0000
0000
0000
0010
0000
0000
0000
0100
:

a=5x. note=20.000000,
;
